<?xml version="1.0" standalone="no"?>
<!DOCTYPE svg PUBLIC "-//W3C//DTD SVG 1.1//EN" "http://www.w3.org/Graphics/SVG/1.1/DTD/svg11.dtd" >
<svg xmlns="http://www.w3.org/2000/svg">
<metadata>Generated by IcoMoon</metadata>
<defs>
<font id="icomoon" horiz-adv-x="1024">
<font-face units-per-em="1024" ascent="870.850439882698" descent="-153.14956011730206" />
<missing-glyph horiz-adv-x="1024" />
<glyph unicode="&#x20;" d="" />
<glyph unicode="&#xe800;" glyph-name="left-arrow" horiz-adv-x="476" d="M466.024-75.158q26.806-26.806 0-49.488-26.806-26.806-49.488 0l-404.163 406.225q-24.744 24.744 0 51.55l404.163 406.225q22.682 26.806 49.488 0 26.806-22.682 0-49.488l-369.107-383.542z" />
<glyph unicode="&#xe900;" glyph-name="right-arrow-black" d="M512 864c-283.794 0-512-228.206-512-512s228.206-512 512-512 512 228.206 512 512-228.206 512-512 512zM646.583 325.669l-196.023-193.097c-5.851-5.851-14.629-8.777-20.48-8.777s-14.629 2.926-20.48 8.777c-11.703 11.703-11.703 29.257 0 40.96l172.617 172.617-172.617 175.543c-11.703 11.703-11.703 29.257 0 40.96s29.257 11.703 40.96 0l193.097-193.097c14.629-11.703 14.629-32.183 2.926-43.886z" />
<glyph unicode="&#xe901;" glyph-name="close" d="M604.16 352l399.36 399.36c20.48 30.72 20.48 71.68 0 92.16-30.72 20.48-71.68 20.48-92.16 0l-399.36-399.36-399.36 399.36c-30.72 30.72-71.68 20.48-92.16 0-20.48-30.72-20.48-71.68 0-92.16l399.36-399.36-399.36-399.36c-30.72-20.48-30.72-71.68 0-92.16 20.48-30.72 71.68-30.72 92.16 0 0 0 0 0 0 0l399.36 399.36 399.36-399.36c30.72-20.48 71.68-20.48 92.16 0s20.48 61.44 0 92.16l-399.36 399.36z" />
<glyph unicode="&#xe902;" glyph-name="delivery" d="M1013.625 558.641l-344 188.891c-5.992 3.289-13.258 3.289-19.25 0l-129.359-71.031c-2.922-0.813-5.648-2.305-7.961-4.367l-206.68-113.492c-6.398-3.516-10.375-10.234-10.375-17.531v-40.891h-230.75c-11.047 0-20-8.961-20-20 0-11.047 8.953-20 20-20h230.75v-72h-114.664c-11.047 0-20-8.961-20-20 0-11.047 8.953-20 20-20h114.664v-104h-168c-11.047 0-20-8.961-20-20 0-11.047 8.953-20 20-20h168v-40.898c0-7.297 3.977-14.016 10.375-17.531l344-188.891c3-1.648 6.313-2.469 9.625-2.469s6.625 0.82 9.625 2.469l344 188.891c6.398 3.516 10.375 10.234 10.375 17.531v89.563c0 11.039-8.953 20-20 20s-20-8.961-20-20v-77.727l-304-166.93v332.156l96.68 53.086v-84.25c0-7.078 3.734-13.625 9.82-17.219 3.133-1.852 6.656-2.781 10.18-2.781 3.313 0 6.633 0.82 9.641 2.477l73.719 40.57c6.383 3.516 10.352 10.227 10.352 17.523v106.117l93.609 51.398v-94.422c0-11.047 8.953-20 20-20s20 8.953 20 20v128.227c0 7.297-3.977 14.016-10.375 17.531zM640 8.227l-304 166.93v332.148l304-166.922zM660 375.031l-302.445 166.078 95.055 52.195 302.453-166.078zM796.617 450.047l-302.453 166.078 32.789 18 302.445-166.078zM850.391 361.609l-33.711-18.555v72.375l33.711 18.516zM870.953 490.867l-302.445 166.078 91.492 50.234 302.445-166.070zM1004 352.875c-5.258 0-10.422-2.117-14.141-5.859-3.719-3.719-5.859-8.859-5.859-14.141 0-5.258 2.141-10.422 5.859-14.141s8.883-5.859 14.141-5.859 10.422 2.141 14.141 5.859c3.719 3.719 5.859 8.883 5.859 14.141 0 5.281-2.141 10.422-5.859 14.141-3.719 3.742-8.883 5.859-14.141 5.859zM48.664 244.219h-28.664c-11.047 0-20-8.961-20-20 0-11.047 8.953-20 20-20h28.664c11.047 0 20 8.953 20 20 0 11.039-8.953 20-20 20zM121.344 368.219c0 5.258-2.141 10.414-5.867 14.133-3.719 3.727-8.875 5.867-14.133 5.867-5.266 0-10.422-2.141-14.141-5.867-3.742-3.719-5.859-8.875-5.859-14.133 0-5.266 2.117-10.422 5.859-14.141 3.719-3.719 8.875-5.859 14.141-5.859 5.258 0 10.414 2.133 14.133 5.859 3.727 3.719 5.867 8.875 5.867 14.141z" />
<glyph unicode="&#xe903;" glyph-name="diameter-icon" horiz-adv-x="887" d="M826.514 600.686l-17.067 4.876 17.067 60.952c4.876 19.505-7.314 39.010-26.819 43.886l-536.381 141.41c-19.505 4.876-39.010-4.876-43.886-24.381l-43.886-153.6c-4.876-19.505 7.314-39.010 26.819-43.886l536.381-141.41c19.505-4.876 39.010 4.876 43.886 24.381l17.067 60.952 17.067-4.876c2.438 0 4.876-2.438 4.876-4.876 0 0 0 0 0 0l-36.571-131.657c0-2.438-2.438-4.876-4.876-4.876l-341.333-19.505c-14.629 0-29.257-12.19-34.133-26.819l-17.067-65.829-21.943 4.876c-29.257 7.314-56.076-9.752-65.829-36.571-4.876-19.505 0-39.010 14.629-51.2 2.438-2.438 2.438-4.876 2.438-7.314l-68.267-204.8c-7.314-17.067-4.876-36.571 4.876-53.638s24.381-29.257 43.886-34.133c19.505-4.876 39.010-2.438 56.076 7.314s26.819 26.819 31.695 43.886l46.324 209.676c0 2.438 2.438 4.876 4.876 4.876 19.505 4.876 34.133 19.505 39.010 36.571 7.314 26.819-9.752 56.076-36.571 63.39 0 0 0 0 0 0l-21.943 4.876 17.067 65.829c0 2.438 2.438 4.876 4.876 4.876l341.333 19.505c14.629 0 29.257 12.19 34.133 26.819l36.571 131.657c4.876 24.381-4.876 43.886-24.381 48.762 0 0 0 0 0 0zM614.4 554.362l173.105 97.524-14.629-56.076-104.838-58.514-53.638 17.067zM514.438 578.743l212.114 119.467 56.076-14.629-212.114-119.467-56.076 14.629zM416.914 605.562l212.114 119.467 56.076-14.629-212.114-119.467-56.076 14.629zM319.39 632.381l212.114 119.467 53.638-17.067-212.114-119.467-53.638 17.067zM219.429 656.762l212.114 119.467 56.076-14.629-212.114-119.467-56.076 14.629zM229.181 744.533l104.838 58.514 53.638-14.629-173.105-99.962 14.629 56.076zM256 822.552l34.133-9.752-48.762-29.257 9.752 34.133c-2.438 2.438 0 4.876 4.876 4.876 0 0 0 0 0 0zM746.057 517.79l-34.133 9.752 48.762 26.819-7.314-31.695c0-2.438-2.438-4.876-7.314-4.876 0 0 0 0 0 0zM448.61 247.162c-2.438-7.314-7.314-14.629-17.067-14.629-14.629-2.438-26.819-14.629-29.257-29.257l-46.324-209.676c-2.438-9.752-7.314-19.505-17.067-24.381s-19.505-7.314-31.695-4.876c-9.752 2.438-19.505 9.752-24.381 19.505s-7.314 19.505-2.438 29.257l68.267 204.8c4.876 14.629 0 29.257-9.752 39.010-4.876 4.876-7.314 12.19-7.314 19.505 2.438 12.19 14.629 17.067 26.819 14.629l73.143-19.505c12.19 0 19.505-12.19 17.067-24.381v0z" />
<glyph unicode="&#xe904;" glyph-name="diameter-tube" horiz-adv-x="1195" d="M1092.267 769.185v0c0 53.096-41.719 94.815-91.022 94.815 0 0 0 0 0 0h-845.748c-49.304 0-91.022-37.926-94.815-87.23-34.133-3.793-60.681-34.133-60.681-68.267s26.548-64.474 64.474-68.267c3.793-45.511 41.719-79.644 91.022-79.644h845.748c22.756 0 45.511 7.585 60.681 22.756v-64.474c0-7.585-7.585-15.17-15.17-15.17h-420.978c-60.681 0-109.985-49.304-113.778-109.985v0-60.681c-18.963-15.17-26.548-37.926-26.548-60.681v-18.963c0-11.378 3.793-22.756 11.378-34.133 0 0 0-3.793 0-3.793s0-3.793-3.793-7.585c-7.585-7.585-11.378-18.963-11.378-30.341v-34.133c0-11.378 3.793-22.756 11.378-34.133 0 0 0-3.793 0-3.793s0-3.793-3.793-7.585c-7.585-7.585-11.378-18.963-11.378-30.341v-34.133c0-11.378 3.793-22.756 11.378-34.133 0 0 0-3.793 0-3.793s0-3.793-3.793-7.585c-7.585-7.585-11.378-18.963-11.378-30.341v-26.548c0-45.511 37.926-83.437 83.437-83.437h22.756c45.511 0 83.437 37.926 83.437 83.437v348.919c0 22.756-7.585 41.719-22.756 56.889v34.133h398.222c83.437 0 151.704 68.267 151.704 151.704v102.4c7.585 64.474-34.133 125.156-98.607 144.119zM1145.363 522.667v0c0-53.096-45.511-98.607-98.607-98.607 0 0 0 0 0 0h-420.978c-15.17 0-30.341-15.17-30.341-30.341v-68.267h-26.548v68.267c0 30.341 26.548 56.889 56.889 56.889h420.978c37.926 0 68.267 30.341 68.267 68.267 0 0 0 0 0 0v106.193c0 30.341-18.963 56.889-45.511 64.474v30.341c45.511-11.378 75.852-49.304 75.852-94.815v-102.4zM534.756-76.563v26.548c15.17 22.756 15.17 53.096 0 75.852 0 0 0 0 0 0s0 0 0 0v34.133c15.17 22.756 15.17 53.096 0 75.852 0 0 0 0 0 0s0 0 0 0v34.133c15.17 22.756 15.17 53.096 0 75.852 0 0 0 0 0 0s0 0 0 0v18.963c0 15.17 11.378 26.548 26.548 26.548h22.756c15.17 0 26.548-11.378 26.548-26.548v-348.919c0-15.17-11.378-26.548-26.548-26.548h-22.756c-11.378 7.585-26.548 18.963-26.548 34.133zM155.496 613.689c-22.756 0-37.926 18.963-41.719 37.926v121.363c0 22.756 18.963 37.926 41.719 37.926h845.748c22.756 0 37.926-18.963 37.926-37.926v-117.57c0-22.756-18.963-37.926-37.926-37.926l-845.748-3.793zM53.096 708.504c0 7.585 7.585 15.17 15.17 15.17h18.963v-26.548h-18.963c-7.585 0-15.17 3.793-15.17 11.378zM515.793 230.637c0 0 0 3.793-3.793 3.793 3.793 0 3.793-3.793 3.793-3.793s0-3.793 3.793-3.793c-3.793 0-3.793 3.793-3.793 3.793zM519.585 223.052c0-3.793 0-7.585 0-11.378 3.793 3.793 0 7.585 0 11.378v0z" />
<glyph unicode="&#xe905;" glyph-name="email" horiz-adv-x="1517" d="M0-68.978v841.956c0 0 0 7.585 7.585 30.341l493.037-424.77-493.037-477.867c-7.585 7.585-7.585 22.756-7.585 30.341v0zM68.267 856.415c7.585 7.585 15.17 7.585 22.756 7.585h1334.993c7.585 0 15.17 0 22.756-7.585l-500.622-424.77-68.267-53.096-121.363-106.193-128.948 106.193-68.267 53.096-493.037 424.77zM68.267-152.415l500.622 477.867 189.63-159.289 189.63 159.289 500.622-477.867c-7.585 0-15.17-7.585-22.756-7.585h-1334.993c-7.585 0-15.17 0-22.756 7.585zM1016.415 378.548l493.037 424.77c7.585-15.17 7.585-22.756 7.585-30.341v-841.956c0-7.585 0-22.756-7.585-30.341l-493.037 477.867z" />
<glyph unicode="&#xe906;" glyph-name="facebook" d="M512 864c-283.307 0-512-228.693-512-512s228.693-512 512-512c283.307 0 512 228.693 512 512s-228.693 512-512 512zM631.467 505.6c0 0 0 0 0 0 0-6.827-3.413-10.24-10.24-10.24h-40.96c-27.307 0-30.72-10.24-30.72-30.72v-44.373h68.267c3.413 0 3.413 0 6.827-3.413s3.413-3.413 3.413-6.827v-75.093c0 0 0 0 0 0 0-3.413-3.413-10.24-10.24-10.24h-68.267v-187.733c0 0 0 0 0 0 0-3.413-3.413-10.24-10.24-10.24h-78.507c0 0 0 0 0 0-3.413 0-10.24 3.413-10.24 10.24v187.733h-58.027c0 0 0 0 0 0-3.413 0-10.24 3.413-10.24 10.24v75.093c0 3.413 3.413 10.24 10.24 10.24h58.027v51.2c0 3.413 0 10.24 0 13.653 3.413 58.027 51.2 98.987 109.227 95.573h58.027c0 0 0 0 0 0 3.413 0 10.24-3.413 10.24-10.24v-64.853z" />
<glyph unicode="&#xe907;" glyph-name="instagram" d="M597.333 546.56h-170.667c-54.613 0-98.987-44.373-98.987-98.987v-170.667c0-54.613 44.373-98.987 98.987-98.987h170.667c54.613 0 98.987 44.373 98.987 98.987v170.667c0 54.613-44.373 98.987-98.987 98.987zM512 263.253c-58.027 0-102.4 44.373-102.4 102.4s44.373 102.4 102.4 102.4 102.4-44.373 102.4-102.4-44.373-102.4-102.4-102.4zM614.4 468.053c-10.24 0-20.48 10.24-20.48 20.48s10.24 20.48 20.48 20.48c10.24 0 20.48-10.24 20.48-20.48 0-13.653-10.24-20.48-20.48-20.48zM512 427.093c-34.133 0-61.44-27.307-61.44-61.44s27.307-61.44 61.44-61.44c34.133 0 61.44 27.307 61.44 61.44s-27.307 61.44-61.44 61.44zM512 864c-283.307 0-512-228.693-512-512s228.693-512 512-512c283.307 0 512 228.693 512 512s-228.693 512-512 512zM737.28 280.32c0-78.507-61.44-139.947-139.947-139.947h-170.667c-78.507 0-139.947 61.44-139.947 139.947v170.667c0 78.507 61.44 139.947 139.947 139.947h170.667c78.507 0 139.947-61.44 139.947-139.947v-170.667z" />
<glyph unicode="&#xe908;" glyph-name="language" d="M874.912 714.912c-200.092 200.092-525.732 200.092-725.824 0s-200.092-525.732 0-725.824 525.732-200.092 725.824 0 200.092 525.732 0 725.824zM415.877 793.379c-19.617-19.617-39.234-39.234-54.927-58.851-31.387-39.234-58.851-82.391-78.467-129.471h-145.165c66.697 94.161 164.782 164.782 278.559 188.322zM102.008 546.207h153.011c-15.693-51.004-27.464-105.931-31.387-164.782h-160.858c3.923 54.927 15.693 113.778 39.234 164.782zM62.774 322.575h164.782c3.923-54.927 11.77-109.854 31.387-164.782h-156.935c-23.54 51.004-35.31 105.931-39.234 164.782v0zM137.318 98.943h145.165c19.617-47.080 47.080-90.238 78.467-129.471 15.693-19.617 35.31-39.234 54.927-58.851-113.778 23.54-211.862 90.238-278.559 188.322v0zM482.575-69.762c-27.464 23.54-51.004 51.004-74.544 78.467s-43.157 58.851-58.851 90.238h133.395v-168.705zM482.575 157.793h-160.858c-19.617 51.004-31.387 105.931-35.31 164.782h196.169v-164.782zM482.575 381.425h-196.169c3.923 54.927 15.693 109.854 35.31 164.782h160.858v-164.782zM482.575 605.057h-133.395c15.693 31.387 35.31 62.774 58.851 90.238s47.080 54.927 74.544 78.467v-168.705zM965.149 381.425h-164.782c-3.923 54.927-11.77 109.854-31.387 164.782h153.011c23.54-51.004 39.234-109.854 43.157-164.782v0zM886.682 605.057h-141.241c-19.617 47.080-47.080 90.238-78.467 129.471-15.693 19.617-35.31 39.234-54.927 58.851 109.854-23.54 211.862-94.161 274.636-188.322v0zM541.425 773.762c27.464-23.54 51.004-51.004 74.544-78.467s43.157-58.851 58.851-90.238h-133.395v168.705zM541.425 546.207h164.782c19.617-51.004 31.387-105.931 35.31-164.782h-196.169l-3.923 164.782zM541.425 322.575h196.169c-3.923-54.927-15.693-109.854-35.31-164.782h-160.858v164.782zM541.425-69.762v168.705h133.395c-15.693-31.387-35.31-62.774-58.851-90.238-19.617-27.464-47.080-54.927-74.544-78.467v0zM608.123-89.379c19.617 19.617 39.234 39.234 54.927 58.851 31.387 39.234 58.851 82.391 78.467 129.471h145.165c-62.774-98.084-164.782-164.782-278.559-188.322v0zM921.992 157.793h-153.011c15.693 51.004 27.464 105.931 31.387 164.782h164.782c-3.923-58.851-19.617-113.778-43.157-164.782z" />
<glyph unicode="&#xe909;" glyph-name="linkedin" d="M539.307 372.48v0 3.413zM512 864c-283.307 0-512-228.693-512-512s228.693-512 512-512c283.307 0 512 228.693 512 512s-228.693 512-512 512zM389.12 113.067h-95.573v303.787h95.573v-303.787zM344.747 457.813c0 0-3.413 0-3.413 0v0c-27.307 0-51.2 20.48-54.613 47.787 0 0 0 3.413 0 3.413 0 27.307 20.48 51.2 51.2 51.2 0 0 3.413 0 3.413 0 27.307 0 51.2-20.48 54.613-47.787 0 0 0-3.413 0-3.413 0-23.893-20.48-47.787-51.2-51.2zM737.28 113.067h-95.573v163.84c0 30.72-6.827 68.267-47.787 68.267-23.893 0-40.96-17.067-51.2-37.547-3.413-6.827-3.413-17.067-3.413-23.893v-170.667h-95.573c0 3.413 0 276.48 0 303.787h95.573v-44.373c17.067 30.72 51.2 51.2 85.333 51.2 30.72 0 58.027-10.24 78.507-34.133 23.893-30.72 34.133-64.853 30.72-102.4v-174.080z" />
<glyph unicode="&#xe90a;" glyph-name="location" horiz-adv-x="717" d="M358.4 864c-199.111 0-358.4-159.289-358.4-358.4 0-267.378 358.4-665.6 358.4-665.6s358.4 398.222 358.4 665.6c0 199.111-159.289 358.4-358.4 358.4zM358.4 374.756c-68.267 0-125.156 56.889-130.844 125.156s56.889 130.844 125.156 130.844 130.844-56.889 130.844-125.156v0c0-68.267-56.889-125.156-125.156-130.844z" />
<glyph unicode="&#xe90b;" glyph-name="length-icon" horiz-adv-x="1018" d="M103.044-89.157c6.44 0 16.101 3.22 22.541 9.66s9.66 12.881 9.66 22.541c0 9.66-3.22 16.101-9.66 22.541-12.881 12.881-32.201 12.881-41.862 0 0 0 0 0 0 0-6.44-6.44-9.66-12.881-9.66-22.541s3.22-16.101 9.66-22.541c3.22-6.44 9.66-9.66 19.321-9.66zM1001.459 377.761l-470.138 466.918c-22.541 22.541-61.182 22.541-83.723 0l-45.082-45.082-3.22 3.22c-9.66 9.66-22.541 9.66-32.201 0-9.66-3.22-12.881-9.66-12.881-16.101s3.22-12.881 6.44-16.101l3.22-3.22-41.862-48.302c-9.66-9.66-16.101-22.541-16.101-38.642-3.22-16.101 3.22-28.981 16.101-41.862l54.742-54.742c-3.22 0-6.44 0-9.66 0-9.66 0-19.321-9.66-19.321-22.541v-167.447c0-12.881 9.66-22.541 22.541-22.541-3.22 0-9.66 0-12.881-3.22-6.44-3.22-9.66-9.66-9.66-16.101 0-3.22 0-3.22 0-6.44v-51.522c3.22-12.881 12.881-19.321 22.541-19.321 0 0 3.22 0 3.22 0 9.66 0 19.321 9.66 19.321 22.541v48.302c0 6.44 0 12.881-3.22 19.321s-9.66 9.66-16.101 9.66c9.66 0 19.321 9.66 19.321 22.541v167.447c0 0 0 0 0 0l41.862-41.862c-3.22 3.22-9.66 3.22-12.881 3.22-9.66 0-19.321-9.66-19.321-22.541v-106.264c0-12.881 9.66-22.541 22.541-25.761h3.22c12.881 0 22.541 9.66 22.541 25.761v109.484c0 3.22 0 3.22-3.22 6.44l338.113-334.893c9.66-9.66 25.761-16.101 41.862-16.101s28.981 6.44 41.862 16.101l51.522 51.522 3.22-3.22c3.22-3.22 3.22-9.66 0-12.881l-109.484-109.484c-3.22-3.22-9.66-3.22-12.881 0l-247.95 244.73c-9.66 9.66-25.761 16.101-38.642 16.101 0 0 0 0 0 0-16.101 0-28.981-6.44-38.642-16.101l-135.245-132.025-32.201 32.201c-9.66 9.66-22.541 9.66-35.421 0l-247.95-254.39c-35.421-35.421-35.421-93.384 0-128.805 16.101-16.101 41.862-25.761 64.403-25.761 0 0 0 0 0 0 25.761 0 48.302 9.66 64.403 25.761l251.17 247.95c3.22 3.22 6.44 9.66 6.44 16.101s-3.22 12.881-6.44 16.101l-32.201 32.201 135.245 132.025c3.22 3.22 9.66 3.22 12.881 0l247.95-244.73c22.541-19.321 57.962-19.321 80.503 0l112.704 109.484c9.66 9.66 16.101 25.761 16.101 38.642s-6.44 28.981-16.101 38.642l-3.22 3.22 38.642 38.642c9.66 9.66 16.101 25.761 16.101 41.862v0c3.22 19.321-3.22 32.201-12.881 41.862zM834.013 207.094c-3.22 0-6.44 0-6.44 3.22l-470.138 460.478c-3.22 3.22-3.22 9.66 0 12.881l125.585 125.585c3.22 3.22 3.22 3.22 6.44 3.22 0 0 0 0 0 0 3.22 0 6.44 0 6.44-3.22l470.138-463.698c3.22-3.22 3.22-9.66 0-12.881l-122.365-122.365c-3.22-3.22-6.44-3.22-9.66-3.22zM357.434 129.811l-231.849-228.629c-19.321-16.101-45.082-16.101-64.403 0-9.66 9.66-12.881 19.321-12.881 32.201s3.22 22.541 12.881 32.201l231.849 231.849 64.403-67.623zM302.692 442.164c3.22-3.22 9.66-6.44 16.101-6.44v0c0 0 0 0 0 0 12.881 0 22.541 9.66 22.541 25.761v148.126c-3.22 12.881-12.881 22.541-25.761 19.321-9.66-3.22-16.101-9.66-19.321-22.541v-144.906c0-6.44 3.22-12.881 6.44-19.321zM296.252 358.44v0c0-6.44 3.22-12.881 9.66-16.101 3.22-3.22 9.66-3.22 12.881-3.22 0 0 3.22 0 3.22 0 9.66 0 19.321 9.66 19.321 22.541v48.302c3.22 12.881-6.44 25.761-19.321 25.761-6.44 0-12.881 0-19.321-3.22s-9.66-9.66-9.66-16.101c0-3.22 0-3.22 0-6.44v-51.522z" />
<glyph unicode="&#xe90c;" glyph-name="minus-sign" horiz-adv-x="5254" d="M4763.826 864h-4274.087c-267.13 0-489.739-222.609-489.739-534.261 0-267.13 222.609-489.739 489.739-489.739h4229.565c267.13 0 489.739 222.609 489.739 534.261 44.522 267.13-178.087 489.739-445.217 489.739v0z" />
<glyph unicode="&#xe90d;" glyph-name="paint-brush-2" horiz-adv-x="936" d="M842.292 540.941l-28.466 7.632 7.632 28.466c2.862 10.675 2.166 22.303 1.47 33.932l-275.246-158.856 145.887-39.115c42.699-11.448 87.821 14.594 99.269 57.292l7.632 28.466 28.466-7.632c14.233-3.816 22.045-17.353 18.229-31.586l-23.85-88.955c-2.862-10.675-12.841-19.441-28.027-19.183l-411.696 15.032c-33.932 1.47-66.472-20.318-79.57-54.946l-58.659-33.855c-4.512-2.604-9.978-8.767-11.887-15.883l-16.218-60.49 156.561-41.977 15.264 56.931c1.908 7.116 0.258 15.187-2.346 19.699l-31.25 54.147c3.816 14.233 13.795 22.999 24.469 20.137l410.742-18.59c37.49-2.424 70.984 22.922 80.524 58.504l24.804 92.514c15.006 41.745-11.036 86.867-53.734 98.315zM763.853 674.714l-120.979 32.436-329.393-190.107 160.12-42.931 320.368 184.898c-9.721 6.42-19.441 12.841-30.116 15.703zM189.521 828.701c-42.699 11.448-87.821-14.594-99.269-57.292v0l-6.678-24.908-28.466 7.632c-14.233 3.816-28.724-7.555-32.54-21.788s3.997-27.77 18.229-31.586l28.466-7.632-6.678-24.908c-2.862-10.675-2.166-22.303-1.47-33.932l274.292 155.298-145.887 39.115zM409.063 769.839l-320.368-184.898c9.721-6.42 19.441-12.841 30.116-15.703l120.979-32.436 329.393 190.107-160.12 42.931zM342.287-38.981c-3.739 42.956 3.197 83.051 10.133 123.145l6.678 24.908-156.561 41.977-6.678-24.908c-10.494-39.14-28.105-76.373-49.274-112.651-7.374-13.279-13.795-22.999-17.611-37.232-11.448-42.699 14.594-87.821 57.292-99.269 0 0 0 0 0 0l53.373-14.31c42.699-11.448 87.821 14.594 99.269 57.292v0c0.258 15.187 3.12 25.862 3.378 41.048z" />
<glyph unicode="&#xe90e;" glyph-name="paint-brush" d="M934 744h-30v30c0 49.63-40.456 90-90 90-20.954 0-462.506 0-483.994 0-0.004 0-0.006 0-0.010 0h-179.996c-49.626 0-90-40.374-90-90v-30h-30c-16.568 0-30-13.432-30-30s13.432-30 30-30h30v-30c0-49.63 40.456-90 90-90h664c49.626 0 90 40.374 90 90v30h30c16.542 0 30-13.458 30-30v-101.87c0-14.17-9.66-26.212-23.464-29.28l-448.058-99.124c-39.718-8.826-67.952-42.308-70.3-82.436l-51.39-51.39c-5.626-5.626-8.788-13.256-8.788-21.214 0-8 0-148.678 0-155.156 0-45.922-11.308-93.888-22.244-140.274-6.002-25.464-7.756-31.276-7.756-43.256 0-49.626 40.374-90 90-90h60c49.626 0 90 40.374 90 90 0 12.034-1.768 17.856-7.756 43.258-10.936 46.386-22.244 94.352-22.244 140.274 0 6.494 0 147.204 0 155.156 0 7.956-3.162 15.586-8.788 21.214l-50.816 50.816c1.922 12 10.87 21.722 23.068 24.432l448.058 99.124c41.496 9.222 70.478 45.35 70.478 87.856v101.87c0 49.626-40.374 90-90 90zM120 666.426v107.574c0 16.542 13.458 30 30 30h107.574l-137.574-137.574zM162.426 624l180 180h187.148l-180-180h-187.148zM434.426 624l180 180h187.148l-180-180h-187.148zM844 654c0-16.542-13.458-30-30-30h-107.574l137.574 137.574v-107.574zM422 256.262l30 30 30-30v-54.262h-60v54.262zM505.844-40.51c6.048-25.662 6.156-25.648 6.156-29.49 0-16.542-13.458-30-30-30h-60c-16.542 0-30 13.458-30 30 0 3.872 0.184 4.148 6.156 29.49 11.722 49.726 23.844 101.144 23.844 154.042v28.468h60v-28.468c0-52.898 12.122-104.316 23.844-154.042z" />
<glyph unicode="&#xe90f;" glyph-name="paint-roller-01" horiz-adv-x="819" d="M150.467 191.228c4.799-4.799 4.799-12.579 0-17.378s-12.579-4.799-17.378 0c-4.799 4.799-4.799 12.579 0 17.378s12.579 4.799 17.378 0zM722.534 441.293c0 8.192-3.277 15.565-9.011 21.299l-301.466 301.466c-11.469 11.469-31.949 11.469-43.418 0l-34.406-34.406-8.192 8.192c-3.277 3.277-8.192 3.277-11.469 0s-3.277-8.192 0-11.469l8.192-8.192-34.406-34.406c-5.734-5.734-9.011-13.107-9.011-21.299s3.277-15.565 9.011-21.299l300.646-300.646c5.734-5.734 13.107-9.011 21.299-9.011s15.565 3.277 21.299 9.011l37.683 37.683 6.554-6.554c4.915-4.915 4.915-13.107 0-18.022l-69.632-72.090c-4.915-4.915-13.107-4.915-18.022 0l-158.925 158.925c-11.469 11.469-29.491 11.469-40.96 0l-91.75-91.75-25.395 25.395c-3.277 3.277-8.192 3.277-11.469 0l-160.563-160.563c-20.48-20.48-20.48-53.248 0-73.728 9.83-9.83 23.757-15.565 36.864-15.565s27.034 4.915 36.864 15.565l160.563 160.563c1.638 1.638 2.458 3.277 2.458 5.734s-0.819 4.096-2.458 5.734l-25.395 25.395 91.75 91.75c4.915 4.915 13.107 4.915 18.022 0l158.925-158.925c5.734-5.734 13.107-8.192 20.48-8.192s14.746 2.458 20.48 8.192l72.090 72.090c5.734 5.734 8.192 13.107 8.192 20.48s-3.277 14.746-8.192 20.48l-6.554 6.554 30.31 30.31c5.734 5.734 9.011 13.107 9.011 21.299zM161.382 151.296c-13.926-13.926-36.864-13.926-50.79 0s-13.926 36.864 0 50.79l154.829 154.829 50.79-50.79-154.829-154.829zM702.054 431.462l-79.462-79.462c-5.734-5.734-14.746-5.734-19.661 0l-301.466 300.646c-5.734 5.734-5.734 14.746 0 19.661l79.462 79.462c5.734 5.734 14.746 5.734 19.661 0l300.646-300.646c5.734-4.915 5.734-13.926 0.819-19.661zM282.624 512.563c4.915 0 8.192 3.277 8.192 8.192v94.208c0 4.915-3.277 8.192-8.192 8.192s-8.192-3.277-8.192-8.192v-94.208c0-4.915 3.277-8.192 8.192-8.192zM316.211 469.965c4.915 0 8.192 3.277 8.192 8.192v107.315c0 4.915-3.277 8.192-8.192 8.192s-8.192-3.277-8.192-8.192v-107.315c0-4.915 4.096-8.192 8.192-8.192zM308.019 412.621c0-4.915 3.277-8.192 8.192-8.192s8.192 3.277 8.192 8.192v32.768c0 4.915-3.277 8.192-8.192 8.192s-8.192-3.277-8.192-8.192v-32.768zM274.432 453.581c0-4.915 3.277-8.192 8.192-8.192s8.192 3.277 8.192 8.192v32.768c0 4.915-3.277 8.192-8.192 8.192s-8.192-3.277-8.192-8.192v-32.768zM360.448 478.157v69.632c0 4.915-3.277 8.192-8.192 8.192s-8.192-3.277-8.192-8.192v-69.632c0-4.915 3.277-8.192 8.192-8.192s8.192 4.096 8.192 8.192z" />
<glyph unicode="&#xe910;" glyph-name="paint-roller-02" horiz-adv-x="819" d="M630.784 747.076v32.956c0 22.209-21.684 43.008-43.893 43.008h-363.34c-22.209 0-43.327-20.799-43.327-43.008v-83.362c0-22.209 21.119-37.47 43.327-37.47h363.34c22.209 0 43.893 15.262 43.893 37.47 0 0 0 28.697 0 31.007 2.695-1.024 8.192-6.439 8.192-12.804v-106.611c0-8.733-6.332-16.687-13.82-20.619l-200.712-95.535c-13.165-6.889-23.036-20.406-23.036-35.25v-27.034h-42.615l8.7-76.669 9.339-24.437v-228.901c0-9.257 6.439-14.057 15.696-14.057h35.496c9.257 0 14.344 4.801 14.344 14.057v228.901l10.535 22.036 11.239 79.069h-46.35v27.034c0 8.733 5.751 16.679 13.238 20.611l201.007 95.551c13.156 6.889 23.323 20.398 23.323 35.25v106.611c0 15.54-16.384 28.516-24.576 32.195zM614.4 720.419l-51.257-44.835h-43.524l94.781 88.416v-43.581zM609.862 789.019l-113.41-113.435h-43.549l131.146 131.072h2.843c11.010 0 20.21-7.487 22.97-17.637zM450.642 806.656h43.532l-131.154-131.072h-43.54l131.162 131.072zM296.313 675.584h-43.532l131.154 131.072h43.54l-131.162-131.072zM517.341 806.656h43.54l-131.146-131.072h-43.54l131.146 131.072zM196.608 753.064l53.912 53.592h43.532l-97.444-97.182v43.59zM223.551 806.656h3.801l-30.745-30.425v3.801c0 13.173 13.771 26.624 26.943 26.624zM201.343 690.756l115.868 115.9h43.549l-131.154-131.072h-6.054c-10.109 0-18.719 6.291-22.209 15.172zM586.891 675.584h-0.573l28.082 21.668v-0.573c0-13.181-14.336-21.094-27.509-21.094zM437.477 356.44l-11.493-24.134v-230.162h-32.768v230.162l-9.626 24.134-6.242 57h68.231l-8.102-57z" />
<glyph unicode="&#xe911;" glyph-name="paint-roller-03" horiz-adv-x="819" d="M127.795 717.363v-28.672c0-4.915-4.096-9.011-9.011-9.011s-9.011 4.096-9.011 9.011v30.31c0 9.011 7.373 16.384 16.384 16.384h100.762c4.915 0 9.011-4.096 9.011-9.011s-4.096-9.011-9.011-9.011zM724.173 719.002v0.819c0 32.768-26.214 58.982-58.982 58.982h-542.31c-31.13 0-57.344-24.576-58.982-55.706-22.118-2.458-39.322-20.48-39.322-43.418s17.203-41.779 40.141-43.418c3.277-29.491 28.672-51.61 58.163-51.61h542.31c14.746 0 28.672 5.734 39.322 14.746v-40.96c0-5.734-4.915-10.65-10.65-10.65h-269.517c-38.502 0-71.27-31.949-72.090-70.451v0 0-39.322c-11.469-9.83-18.022-24.576-18.022-39.322v-13.107c0-7.373 2.458-14.746 7.373-21.299 0 0 0.819-1.638 0.819-3.277 0-0.819 0-1.638-1.638-4.096-4.096-6.554-6.554-13.107-6.554-20.48v-21.299c0-7.373 2.458-14.746 7.373-21.299 0 0 0.819-1.638 0.819-3.277 0-0.819 0-1.638-1.638-4.096-4.096-6.554-6.554-13.107-6.554-20.48v-22.938c0-7.373 2.458-14.746 7.373-21.299 0 0 0.819-1.638 0.819-3.277 0-0.819 0-1.638-1.638-4.096-4.096-6.554-6.554-13.107-6.554-20.48v-18.022c0-28.672 23.757-52.429 52.429-52.429h14.746c28.672 0 52.429 23.757 52.429 52.429v223.642c0 14.746-5.734 27.853-15.565 36.864v27.034h254.771c53.248 0 96.666 43.418 96.666 96.666v66.355c0.819 42.598-26.214 79.462-65.536 92.57zM756.941 559.258h-0.819c0-34.406-27.853-62.259-62.259-62.259h-269.517c-10.65 0-19.661-9.011-19.661-19.661v-43.418c-0.819 0-1.638 0-2.458 0h-14.746v42.598c0 20.48 17.203 36.864 37.683 36.864h269.517c24.576 0 44.237 19.661 44.237 44.237v68.813c0 19.661-13.107 36.045-30.31 41.779v18.842c27.853-6.554 48.333-31.13 48.333-60.621v-67.174zM367.821 176.691v18.022c0 0 0 0 0.819 0.819 4.915 6.554 7.373 14.746 7.373 23.757s-2.458 17.203-7.373 23.757c0 0.819-0.819 0.819-0.819 0.819v22.938c0 0 0 0 0.819 0.819 4.915 6.554 7.373 14.746 7.373 23.757s-2.458 17.203-7.373 23.757c0 0.819-0.819 0.819-0.819 0.819v22.938c0 0 0 0 0.819 0.819 4.915 6.554 7.373 14.746 7.373 23.757s-2.458 17.203-7.373 23.757c0 0.819-0.819 0.819-0.819 0.819v13.107c0 9.83 8.192 18.022 18.022 18.022h15.565c9.83 0 18.022-8.192 18.022-18.022v-224.461c0-9.83-8.192-18.022-18.022-18.022h-15.565c-9.83 0-18.022 8.192-18.022 18.022zM122.88 619.059c-13.926 0-25.395 11.469-25.395 25.395v75.366c0 13.926 11.469 25.395 25.395 25.395h542.31c13.926 0 25.395-11.469 25.395-25.395v-75.366h-0.819c0-13.926-11.469-25.395-25.395-25.395h-541.491zM58.982 680.499c0 4.915 4.096 9.011 9.011 9.011h12.288v-18.022h-12.288c-4.915 0-9.011 4.096-9.011 9.011zM354.714 373.299c-0.819 0.819-0.819 1.638-1.638 2.458 0.819-0.819 0.819-1.638 1.638-2.458s0.819-1.638 1.638-2.458c-0.819 0.819-0.819 1.638-1.638 2.458zM357.99 367.565c0.819-2.458 0.819-4.915 0.819-7.373 0 2.458-0.819 4.915-0.819 7.373z" />
<glyph unicode="&#xe912;" glyph-name="paint-roller-04" horiz-adv-x="819" d="M647.987 726.374h-14.746v50.79c0 15.565-13.107 28.672-28.672 28.672h-434.176c-15.565 0-28.672-13.107-28.672-28.672v-126.976c0-15.565 13.107-28.672 28.672-28.672h434.176c15.565 0 28.672 13.107 28.672 28.672v50.79h14.746c2.458 0 4.096-1.638 4.096-4.096v-108.954c0-1.638-0.819-3.277-2.458-4.096l-253.952-85.197c-11.469-4.096-19.661-14.746-19.661-27.034v-54.886h-17.203c-22.938 0-41.779-18.842-41.779-41.779 0-15.565 8.192-29.491 22.118-36.864 1.638-0.819 3.277-3.277 3.277-4.915l-9.011-172.032c-0.819-15.565 4.096-29.491 14.746-40.96s24.576-17.203 40.141-17.203 29.491 5.734 40.141 17.203 15.565 25.395 14.746 40.96l-9.011 172.032c0 2.458 0.819 4.096 3.277 4.915 13.926 7.373 22.118 21.299 22.118 36.864 0 22.938-18.842 41.779-41.779 41.779h-17.203v54.886c0 1.638 0.819 3.277 2.458 4.096l253.952 85.197c11.469 4.096 19.661 14.746 19.661 27.034v109.773c0 15.565-12.288 28.672-28.672 28.672zM498.074 646.093l111.411 111.411v-45.056l-66.355-66.355h-45.056zM417.792 646.093l135.168 135.168h45.056l-135.168-135.168h-45.056zM338.33 646.093l135.168 135.168h45.056l-135.168-135.168h-45.056zM258.048 646.093l135.168 135.168h45.056l-135.168-135.168h-45.056zM178.586 646.093l135.168 135.168h45.056l-135.168-135.168h-45.056zM167.117 714.906l67.174 67.174h44.237l-111.411-112.23v45.056zM171.213 781.261h27.853l-31.949-31.949v27.853c0 2.458 1.638 4.096 4.096 4.096zM605.389 646.093h-27.034l31.13 31.13v-27.034c0-2.458-1.638-4.096-4.096-4.096zM434.995 374.938c0-6.554-3.277-12.288-9.011-14.746-10.65-5.734-17.203-16.384-16.384-28.672l9.011-172.032c0.819-8.192-2.458-16.384-8.192-22.118s-13.926-9.83-22.118-9.83-16.384 3.277-22.118 9.83-9.011 13.926-8.192 22.938l9.011 172.032c0.819 11.469-5.734 22.938-16.384 28.672-5.734 3.277-9.011 9.011-9.011 14.746 0 9.011 7.373 17.203 17.203 17.203h58.982c9.83-0.819 17.203-8.192 17.203-18.022z" />
<glyph unicode="&#xe913;" glyph-name="pencil" d="M101.801 155.524l-101.801-317.38 317.38 101.801-215.579 215.579zM174.125 231.154l499.651 499.651 215.951-215.951-499.651-499.651-215.951 215.951zM1013.041 702.316l-143.719 143.719c-17.965 17.965-47.906 17.965-71.86 0 0 0 0 0 0 0l-47.906-41.918 215.579-215.579 47.906 47.906c17.965 17.965 17.965 47.906 0 65.871 0 0 0 0 0 0z" />
<glyph unicode="&#xe914;" glyph-name="phone" d="M998.4 111.36l-143.36 143.36c-35.84 35.84-97.28 40.96-133.12 0-10.24-10.24-20.48-25.6-25.6-35.84-15.36-46.080-66.56-71.68-112.64-61.44-122.88 46.080-220.16 143.36-266.24 266.24-15.36 46.080 15.36 97.28 61.44 112.64 51.2 15.36 76.8 71.68 61.44 122.88-5.12 10.24-15.36 25.6-25.6 35.84l-143.36 143.36c-40.96 35.84-97.28 35.84-138.24 0l-97.28-97.28c-97.28-102.4 10.24-373.76 250.88-614.4s512-353.28 614.4-250.88l97.28 97.28c35.84 40.96 35.84 97.28 0 138.24z" />
<glyph unicode="&#xe915;" d="M512 864c-282.624 0-512-229.376-512-512s229.376-512 512-512 512 229.376 512 512c0 282.624-229.376 512-512 512 0 0 0 0 0 0zM765.952 323.328h-231.424v-231.424c0-16.384-12.288-28.672-28.672-28.672s-28.672 12.288-28.672 28.672v231.424h-229.376c-16.384 0-28.672 12.288-28.672 28.672s12.288 28.672 28.672 28.672c0 0 0 0 0 0h229.376v231.424c0 16.384 12.288 28.672 28.672 28.672s28.672-12.288 28.672-28.672c0 0 0 0 0 0v-231.424h231.424c16.384 0 28.672-12.288 28.672-28.672 0 0 0 0 0 0 0-16.384-14.336-28.672-28.672-28.672z" />
<glyph unicode="&#xe916;" d="M765.952 323.328h-231.424v-231.424c0-16.384-12.288-28.672-28.672-28.672s-28.672 12.288-28.672 28.672v231.424h-229.376c-16.384 0-28.672 12.288-28.672 28.672s12.288 28.672 28.672 28.672c0 0 0 0 0 0h231.424v229.376c0 16.384 12.288 28.672 28.672 28.672s28.672-12.288 28.672-28.672c0 0 0 0 0 0v-231.424h231.424c16.384 0 28.672-12.288 28.672-28.672 0 0 0 0 0 0-2.048-14.336-16.384-26.624-30.72-26.624z" />
<glyph unicode="&#xe917;" glyph-name="plus-sign" d="M1024 352c0-51.2-42.667-93.867-85.333-93.867 0 0 0 0 0 0h-341.333v-332.8c0-42.667-34.133-85.333-85.333-85.333s-93.867 42.667-93.867 85.333v332.8h-332.8c-42.667 0-85.333 42.667-85.333 93.867s42.667 85.333 85.333 85.333h332.8v341.333c0 51.2 42.667 85.333 93.867 85.333s85.333-42.667 85.333-85.333v-332.8h332.8c51.2 0 93.867-42.667 93.867-93.867 0 0 0 0 0 0z" />
<glyph unicode="&#xe918;" glyph-name="plus" horiz-adv-x="819" d="M409.6 850.074c-218.726 0-395.674-176.947-395.674-395.674s176.947-395.674 395.674-395.674 395.674 176.947 395.674 395.674c0 218.726-176.947 395.674-395.674 395.674zM605.389 431.462h-178.586v-178.586c0-12.288-9.83-22.118-22.118-22.118s-22.118 9.83-22.118 22.118v178.586h-177.766c-12.288 0-22.118 9.83-22.118 22.118s9.83 22.118 22.118 22.118h178.586v178.586c0 12.288 9.83 22.118 22.118 22.118s22.118-9.83 22.118-22.118v-178.586h178.586c12.288 0 22.118-9.83 22.118-22.118-0.819-12.288-10.65-22.118-22.938-22.118z" />
<glyph unicode="&#xe919;" glyph-name="search" d="M1017.976-93.741l-295.153 295.153c138.541 174.682 114.447 427.671-60.235 572.235s-427.671 114.447-572.235-60.235-114.447-427.671 60.235-572.235c150.588-120.471 361.412-120.471 512 0l295.153-295.153c6.024-6.024 24.094-6.024 30.118 0l30.118 30.118c6.024 6.024 6.024 24.094 0 30.118 0 0 0 0 0 0zM403.576 141.176c-174.682 0-319.247 144.565-319.247 319.247s144.565 319.247 319.247 319.247c174.682 0 319.247-144.565 319.247-319.247v0c0-180.706-138.541-319.247-319.247-319.247z" />
<glyph unicode="&#xe91a;" glyph-name="share" d="M768 235.84c-38.032 0-72.24-16-96.528-41.536l-283.792 138.944c0.976 6.528 1.648 13.136 1.648 19.936 0 6.624-0.64 13.088-1.568 19.44l283.376 137.424c24.304-25.744 58.672-41.904 96.864-41.904 73.632 0 133.328 59.696 133.328 133.328 0 73.648-59.696 133.328-133.328 133.328s-133.328-59.68-133.328-133.328c0-6.624 0.64-13.072 1.568-19.44l-283.376-137.424c-24.304 25.744-58.656 41.904-96.864 41.904-73.648 0-133.328-59.696-133.328-133.328 0-73.648 59.68-133.328 133.328-133.328 38.032 0 72.24 16 96.528 41.536l283.792-138.944c-0.976-6.512-1.648-13.136-1.648-19.936 0-73.648 59.696-133.328 133.328-133.328s133.328 59.68 133.328 133.328c0 73.648-59.696 133.328-133.328 133.328z" />
<glyph unicode="&#xe91b;" glyph-name="cart" horiz-adv-x="1075" d="M1068.178 730.039c-5.758 7.031-14.44 11.483-24.161 11.483-0.017 0-0.035 0-0.052 0h-825.304l-23.077 98.743c-3.367 13.718-15.558 23.735-30.089 23.735-0.042 0-0.084 0-0.125 0h-134.357c-16.906 0-30.61-13.705-30.61-30.61s13.705-30.61 30.61-30.61h109.714l156.635-670.208c3.367-13.718 15.558-23.735 30.089-23.735 0.042 0 0.084 0 0.125 0h621.269c16.906 0 30.61 13.705 30.61 30.61s-13.705 30.61-30.61 30.61h-596.59l-23.845 101.998h622.446c0.036 0 0.078 0 0.121 0 14.584 0 26.811 10.090 30.081 23.67l0.043 0.211 93.111 408.247c0.481 2.023 0.757 4.346 0.757 6.733 0 7.275-2.563 13.952-6.834 19.177l0.043-0.054zM926.135 333.275h-612.059l-81.079 347.026h772.206zM454.802 67.401c-62.795 0-113.701-50.905-113.701-113.701s50.905-113.701 113.701-113.701c62.795 0 113.701 50.905 113.701 113.701v0c-0.062 62.77-50.931 113.638-113.695 113.701h-0.006zM454.802-97.975c-28.54 0-51.675 23.136-51.675 51.675s23.136 51.675 51.675 51.675c28.54 0 51.675-23.136 51.675-51.675v0c-0.042-28.523-23.153-51.634-51.671-51.675h-0.004zM826.88 67.401c-62.795 0-113.701-50.905-113.701-113.701s50.905-113.701 113.701-113.701c62.795 0 113.701 50.905 113.701 113.701v0c-0.062 62.77-50.931 113.638-113.695 113.701h-0.006zM826.88-97.975c-28.54 0-51.675 23.136-51.675 51.675s23.136 51.675 51.675 51.675c28.54 0 51.675-23.136 51.675-51.675v0c-0.042-28.523-23.153-51.634-51.671-51.675h-0.004z" />
<glyph unicode="&#xe91c;" glyph-name="stick" horiz-adv-x="819" d="M757.504 505.6l-114.688 114.432 24.32 24.064c9.955 10.15 16.099 24.070 16.099 39.424s-6.144 29.274-16.108 39.433l-42.231 42.231c-10.15 9.955-24.070 16.099-39.424 16.099s-29.274-6.144-39.433-16.108l-466.167-466.423c-15.793-15.247-25.6-36.606-25.6-60.255 0-0.056 0-0.113 0-0.169v0.009c-0.001-0.153-0.002-0.333-0.002-0.514 0-47.081 38.167-85.248 85.248-85.248 0.181 0 0.361 0.001 0.541 0.002h-0.028c23.675 0.14 45.041 9.91 60.402 25.586l0.014 0.014 341.76 340.992 114.432-114.432c8.758-8.64 20.769-14 34.033-14.080h0.015c13.206 0.033 25.15 5.409 33.791 14.079l0.001 0.001 32.256 31.744c9.196 8.822 14.911 21.212 14.911 34.936 0 13.347-5.404 25.431-14.143 34.184l0.001-0.001zM479.488 529.152l-48.64 48.64 27.392 27.392 48.64-48.384zM521.984 668.672l48.384-48.384-27.392-27.648-48.64 48.64zM585.472 730.368c0.452 0.203 0.98 0.321 1.536 0.321s1.084-0.118 1.56-0.33l-0.024 0.010 42.24-42.24c0.852-0.754 1.387-1.851 1.387-3.072s-0.535-2.318-1.382-3.068l-0.004-0.004-24.064-24.32-48.64 48.64 24.32 24.064c0.371 0.131 0.799 0.207 1.244 0.207 0.67 0 1.3-0.172 1.848-0.473l-0.020 0.010zM164.352 213.76c-6.201-6.169-14.751-9.983-24.192-9.983s-17.991 3.814-24.193 9.984l0.001-0.001c-6.336 6.109-10.271 14.672-10.271 24.154 0 0.509 0.011 1.015 0.034 1.518l-0.003-0.072c0 0.047 0 0.103 0 0.158 0 9.398 3.926 17.88 10.227 23.894l0.013 0.012 278.784 277.76 48.384-48.64zM691.456 444.16l-112.128 112.64 27.392 25.6 112.128-112.384z" />
<glyph unicode="&#xe91d;" glyph-name="total" d="M512 864c-282.413 0-512-229.587-512-512s229.587-512 512-512c282.413 0 512 229.587 512 512s-229.587 512-512 512zM770.032 230.095h-507.937c-16.254 0-30.476 14.222-30.476 30.476s14.222 30.476 30.476 30.476h507.937c16.254 0 30.476-14.222 30.476-30.476s-14.222-30.476-30.476-30.476zM770.032 392.635h-507.937c-16.254 0-30.476 14.222-30.476 30.476s14.222 30.476 30.476 30.476h507.937c16.254 0 30.476-14.222 30.476-30.476s-14.222-30.476-30.476-30.476z" />
<glyph unicode="&#xe91e;" glyph-name="twitter" d="M512 864c-283.307 0-512-228.693-512-512s228.693-512 512-512c283.307 0 512 228.693 512 512s-228.693 512-512 512zM727.040 450.987c0-3.413 0-10.24 0-13.653 0-167.253-133.12-303.787-300.373-307.2 0 0-3.413 0-3.413 0-58.027 0-116.053 17.067-163.84 47.787 10.24 0 17.067 0 27.307 0 47.787 0 95.573 17.067 133.12 44.373-44.373 0-85.333 30.72-98.987 75.093 6.827 0 13.653 0 20.48 0 10.24 0 20.48 0 27.307 3.413-51.2 10.24-85.333 54.613-85.333 105.813v0c13.653-6.827 30.72-13.653 47.787-13.653-47.787 30.72-61.44 95.573-34.133 143.36 54.613-68.267 136.533-109.227 221.867-112.64-6.827 10.24-6.827 17.067-6.827 23.893 0 58.027 47.787 109.227 109.227 105.813 30.72 0 58.027-13.653 78.507-34.133 23.893 3.413 47.787 13.653 68.267 27.307-6.827-23.893-23.893-44.373-47.787-58.027 20.48 3.413 40.96 6.827 61.44 17.067-17.067-20.48-34.133-40.96-54.613-54.613z" />
<glyph unicode="&#xe91f;" glyph-name="user" d="M874.057 202.057c-53.291 53.491-118.36 95.208-190.992 120.937l-3.568 1.102c78.055 54.081 128.53 143.183 128.53 244.074 0 163.481-132.528 296.009-296.009 296.009s-296.009-132.528-296.009-296.009c0-100.891 50.475-189.993 127.551-243.432l0.98-0.643c-202.179-71.731-344.397-261.286-344.539-484.078v-0.018h79.982c0 238.587 193.413 432 432 432s432-193.413 432-432v0h80.018c0.001 0.42 0.002 0.918 0.002 1.416 0 140.942-57.321 268.495-149.923 360.619l-0.022 0.022zM512 352c-119.288 0-215.991 96.702-215.991 215.991s96.702 215.991 215.991 215.991c119.288 0 215.991-96.702 215.991-215.991v0c-0.146-119.23-96.761-215.845-215.977-215.991h-0.014z" />
<glyph unicode="&#xe920;" glyph-name="heart" horiz-adv-x="1162" d="M581.010-160c-0.018 0-0.039 0-0.060 0-17.191 0-32.903 6.329-44.934 16.784l0.084-0.071c-46.958 40.667-92.197 78.848-132.133 112.567h-0.219c-105.727 83.908-199.987 171.734-286.889 266.423l-1.623 1.792c-69.013 73.425-112.338 171.694-115.225 280.045l-0.012 0.567c-0.031 1.755-0.049 3.826-0.049 5.9 0 92.394 35.023 176.608 92.516 240.090l-0.271-0.304c57.475 61.728 139.203 100.216 229.92 100.216 0.876 0 1.751-0.004 2.625-0.011l-0.134 0.001c0.416 0.002 0.908 0.003 1.4 0.003 68.625 0 131.761-23.507 181.793-62.908l-0.628 0.477c28.242-22.009 52.579-47.16 73.063-75.297l0.739-1.065c21.232 29.202 45.581 54.353 73.009 75.739l0.828 0.622c49.404 38.924 112.539 62.431 181.165 62.431 0.531 0 1.061-0.001 1.591-0.004h-0.082c0.751 0.006 1.639 0.010 2.527 0.010 90.717 0 172.445-38.488 229.746-100.026l0.175-0.19c57.201-63.173 92.209-147.372 92.209-239.747 0-2.089-0.018-4.173-0.054-6.254l0.004 0.313c-2.943-108.852-46.259-207.051-115.444-280.652l0.207 0.222c-88.515-96.484-182.763-184.31-283.464-264.368l-5.011-3.847c-40.009-33.755-85.321-72.009-132.389-112.786-11.946-10.362-27.646-16.677-44.822-16.677-0.057 0-0.113 0-0.17 0h0.009zM324.608 796.562c-0.63 0.006-1.375 0.009-2.121 0.009-71.108 0-135.177-30.142-180.126-78.345l-0.135-0.146c-46.059-51.268-74.225-119.421-74.225-194.152 0-2.047 0.021-4.088 0.063-6.125l-0.005 0.304c2.863-92.446 40.282-175.634 99.701-237.545l-0.117 0.123c86.041-93.349 177.59-178.453 275.311-256.126l4.936-3.787h0.219c40.229-33.829 85.504-72.192 132.791-113.152 47.543 41.033 93.074 79.47 133.23 113.371 102.641 81.462 194.178 166.565 278.69 258.243l1.52 1.67c59.291 61.78 96.708 144.953 99.57 236.832l0.014 0.553c0.035 1.679 0.055 3.658 0.055 5.642 0 74.729-28.165 142.88-74.459 194.416l0.237-0.269c-45.084 48.349-109.152 78.491-180.26 78.491-0.708 0-1.415-0.003-2.121-0.009l0.108 0.001c-0.256 0.001-0.56 0.002-0.863 0.002-53.075 0-101.898-18.207-140.564-48.715l0.481 0.366c-31.272-24.951-57.413-54.762-77.655-88.514l-0.827-1.488c-7.711-12.523-21.346-20.745-36.901-20.745s-29.189 8.223-36.794 20.559l-0.107 0.186c-21.122 35.268-47.336 65.094-78.034 89.526l-0.668 0.513c-38.177 30.12-86.982 48.313-140.037 48.313-0.32 0-0.64-0.001-0.959-0.002h0.050z" />
<glyph unicode="&#xe921;" glyph-name="handhold" horiz-adv-x="1009" d="M18.484-12.13c0-33.271 11.090-66.542 36.968-88.722 48.058-48.058 125.69-48.058 173.747 0l3.697 3.697 728.26 735.653c29.574 33.271 29.574 81.329 0 110.903l-66.542 66.542c-14.787 14.787-33.271 22.181-55.451 22.181s-40.664-7.394-55.451-22.181l-728.26-739.35c-22.181-22.181-36.968-55.451-36.968-88.722zM831.769 775.278c3.697 0 3.697 0 7.394 0s7.394 0 11.090 0l70.238-70.238c7.394-3.697 7.394-14.787 0-22.181l-44.361-44.361-88.722 88.722 44.361 48.058zM743.047 682.859l88.722-88.722-55.451-59.148-88.722 88.722 55.451 59.148zM643.235 583.047l88.722-88.722-55.451-55.451-88.722 88.722 55.451 55.451zM99.812 32.231l443.61 447.307 88.722-88.722-443.61-451.004c-11.090-11.090-29.574-18.484-44.361-18.484-18.484 0-33.271 7.394-48.058 18.484-22.181 29.574-22.181 70.238 3.697 92.419z" />
<glyph unicode="&#xe922;" glyph-name="menu" horiz-adv-x="1260" d="M1194.667 733.968h-1129.651c-36.571 0-65.016 32.508-65.016 65.016s28.444 65.016 65.016 65.016h1129.651c36.571 0 65.016-28.444 65.016-65.016s-28.444-65.016-65.016-65.016zM1194.667 286.984h-1129.651c-36.571 0-65.016 28.444-65.016 65.016s28.444 65.016 65.016 65.016h1129.651c36.571 0 65.016-28.444 65.016-65.016s-28.444-65.016-65.016-65.016zM1194.667-160h-1129.651c-36.571 0-65.016 28.444-65.016 65.016s28.444 65.016 65.016 65.016h1129.651c36.571 0 65.016-28.444 65.016-65.016s-28.444-65.016-65.016-65.016z" />
<glyph unicode="&#xe923;" glyph-name="right-arrow" d="M322.712-147.331c-6.186-7.217-14.434-10.31-22.682-10.31s-17.527 3.093-23.713 10.31c-12.372 12.372-12.372 32.992 0 46.395l408.287 407.256-408.287 407.256c-12.372 13.403-12.372 34.023 0 46.395s34.023 13.403 46.395 0l430.969-429.938c12.372-13.403 12.372-34.023 0-46.395l-430.969-430.969z" />
<glyph unicode="&#xe924;" glyph-name="down-arrow" d="M969.167 545.52c-12.372 12.372-32.992 12.372-46.395 0l-407.256-408.287-408.287 408.287c-12.372 12.372-34.023 12.372-46.395 0s-12.372-34.023 0-46.395l430.969-430.969c6.186-6.186 14.434-9.279 22.682-9.279s17.527 3.093 23.713 9.279l430.969 430.969c13.403 12.372 13.403 32.992 0 46.395z" />
</font>
</defs>
</svg>
